Zone Telechargement

Dernières actualités du site :

Ex: ZoneTelechargement torrents


Les Bodin's Grandeur Nature
Les Bodin's Grandeur Nature




Qualité/Format/Langue : HDLight 720p FRENCH

Julie, une jeune parisienne délurée, qui fait les 400 coups et le désespoir de ses parents, est placée, pendant les grandes vacances, chez des cousins éloignés, au coeur de la France profonde : la famille Bodin.NFO Show/hide text General Unique ID : 192111521952412983753004858093797790665 (0x90875551C5B36523E42993A26C9E53C9) Complete name : Les.Bodins.Grandeur.Nature.2019.FRENCH.720p.BluRay.Light.x264.AC3-ACOOL.WwW.Zone-Telechargement.Net.mkv Format : Matroska Format version : Version 4 / Version 2 File size : 2.30 GiB Duration : 2 h 39 min Overall bit rate : 2 068 kb/s Movie name : Les Bodin's Grandeur Nature Encoded date : UTC 2019-10-08 21:35:37 Writing application : mkvmerge v25.0.0 ('Prog Noir') 64-bit Writing library : libebml v1.3.6 + libmatroska v1.4.9 Video ID : 1 Format : AVC Format/Info : Advanced Video Codec Format profile : [email protected] Format settings : CABAC / 4 Ref Frames Format settings, CABAC : Yes Format settings, ReFrames : 4 frames Codec ID : V_MPEG4/ISO/AVC Duration : 2 h 39 min Bit rate : 1 600 kb/s Width : 1 280 pixels Height : 720 pixels Display aspect ratio : 16:9 Frame rate mode : Constant Frame rate : 25.000 FPS Color space : YUV Chroma subsampling : 4:2:0 Bit depth : 8 bits Scan type : Progressive Bits/(Pixel*Frame) : 0.069 Stream size : 1.78 GiB (77%) Writing library : x264 core 155 r2901 7d0ff22 Encoding settings : cabac=1 / ref=1 / deblock=1:0:0 / analyse=0x3:0x113 / me=hex / subme=2 / psy=1 / psy_rd=1.00:0.00 / mixed_ref=0 / me_range=16 / chroma_me=1 / trellis=0 / 8x8dct=1 / cqm=0 / deadzone=21,11 / fast_pskip=1 / chroma_qp_offset=0 / threads=22 / lookahead_threads=5 / sliced_threads=0 / nr=0 / decimate=1 / interlaced=0 / bluray_compat=0 / constrained_intra=0 / bframes=3 / b_pyramid=2 / b_adapt=1 / b_bias=0 / direct=1 / weightb=1 / open_gop=0 / weightp=1 / keyint=250 / keyint_min=25 / scenecut=40 / intra_refresh=0 / rc_lookahead=10 / rc=2pass / mbtree=1 / bitrate=1600 / ratetol=1.0 / qcomp=0.60 / qpmin=0 / qpmax=69 / qpstep=4 / cplxblur=20.0 / qblur=0.5 / vbv_maxrate=62500 / vbv_bufsize=78125 / nal_hrd=none / filler=0 / ip_ratio=1.40 / aq=1:1.00 Default : Yes Forced : No Color range : Limited Color primaries : BT.709 Transfer characteristics : BT.709 Matrix coefficients : BT.709 Audio ID : 2 Format : AC-3 Format/Info : Audio Coding 3 Codec ID : A_AC3 Duration : 2 h 39 min Bit rate mode : Constant Bit rate : 448 kb/s Channel(s) : 2 channels Channel positions : Front: L R Sampling rate : 48.0 kHz Frame rate : 31.250 FPS (1536 SPF) Bit depth : 16 bits Compression mode : Lossy Stream size : 510 MiB (22%) Title : French AC3 2.0 448kb/s Language : French Service kind : Complete Main Default : Yes Forced : No Text ID : 3 Format : PGS Muxing mode : zlib Codec ID : S_HDMV/PGS Codec ID/Info : Picture based subtitle format used on BDs/HD-DVDs Duration : 2 h 39 min Bit rate : 50.8 kb/s Count of elements : 6462 Stream size : 57.9 MiB (2%) Title : French SDH Language : French Default : No Forced : No Menu 00:00:00.000 : :Chapter 01 00:12:22.200 : :Chapter 02 00:24:48.880 : :Chapter 03 00:36:08.360 : :Chapter 04 00:47:34.960 : :Chapter 05 01:07:53.680 : :Chapter 06 01:23:14.560 : :Chapter 07 01:34:04.000 : :Chapter 08 01:53:09.760 : :Chapter 09 02:08:16.880 : :Chapter 10 02:20:11.400 : :Chapter 11 02:38:08.560 : :Chapter 12


uptobox 1fichier uploaded turbobit

telecharger

Voir aussi :

Nom du torrent Taille Qualité
Les Bodin's Grandeur Nature 2,3 Go HDLight 720p FRENCH
Elementary Saison 7 Episode 7 HDTV VOSTFR
Damien veut changer le monde (2019-03-06) 2,1 Go WEB-DL 720p FRENCH
Badla 1,4 Go Webrip VOSTFR
Sorry To Bother You (2019-01-30) 8,3 Go Blu-Ray 1080p
Jett Saison 1 Episode 4 HD 720p FRENCH
Bleach 2,8 Go HDLight 1080p MULTI
La Route sauvage (Lean on Pete) (2018-04-25) 4.28 Go WEB-DL 720p
Sacré Noël : Drôle de chorale 700 Mo DVDRIP FRENCH
Les Enfants Maudits 700 Mo HDRip FRENCH
Hellboy (2019-05-08) 1,4 Go BDRIP TRUEFRENCH
The InBetween Saison 1 Episode 10 HD 720p VOSTFR
Heartland (CA) Saison 12 Episode 6 HD 720p FRENCH