Zone Telechargement

Dernières actualités du site :

Ex: ZoneTelechargement torrents


Gwen
Gwen



Origine du film :Grande-Bretagne
Réalisateur(s) :William McGregor
Acteur(s) :Eleanor Worthington-Cox, Maxine Peake, Richard Harrington
Genre :Drame,Thriller,
Titre Original :Gwen
Note spectateur : - 3.1/5
Qualité/Format/Langue : BRRIP VOSTFR

Dans les régions reculées du Pays de Galles, en pleine Révolution industrielle, une jeune adolescente vit au milieu des montagnes avec sa petite sœur et sa mère castratrice. Son père a disparu, et les autres habitants du village semblent hostiles à la famille. NFO X264 : Show/hide text General Unique ID : 114621316953222228006522623978168359468 (0x563B433D96E9192CCBB33A83B2AB9A2C) Complete name : Gwen.2018.VOSTFR.BRRip.x264-ACOOL.WwW.Zone-Telechargement.Net.mkv Format : Matroska Format version : Version 4 / Version 2 File size : 329 MiB Duration : 1 h 24 min Overall bit rate : 546 kb/s Movie name : Gwen Encoded date : UTC 2019-10-08 22:03:51 Writing application : mkvmerge v25.0.0 ('Prog Noir') 64-bit Writing library : libebml v1.3.6 + libmatroska v1.4.9 Video ID : 1 Format : AVC Format/Info : Advanced Video Codec Format profile : [email protected] Format settings : CABAC / 5 Ref Frames Format settings, CABAC : Yes Format settings, ReFrames : 5 frames Codec ID : V_MPEG4/ISO/AVC Duration : 1 h 24 min Bit rate : 421 kb/s Width : 720 pixels Height : 306 pixels Display aspect ratio : 2.35:1 Frame rate mode : Constant Frame rate : 23.976 (24000/1001) FPS Color space : YUV Chroma subsampling : 4:2:0 Bit depth : 8 bits Scan type : Progressive Bits/(Pixel*Frame) : 0.080 Stream size : 254 MiB (77%) Writing library : x264 core 158 r2984 3759fcb Encoding settings : cabac=1 / ref=5 / deblock=1:-3:-3 / analyse=0x3:0x113 / me=umh / subme=8 / psy=1 / psy_rd=1.00:0.00 / mixed_ref=1 / me_range=16 / chroma_me=1 / trellis=2 / 8x8dct=1 / cqm=0 / deadzone=21,11 / fast_pskip=1 / chroma_qp_offset=-2 / threads=10 / lookahead_threads=1 / sliced_threads=0 / nr=0 / decimate=1 / interlaced=0 / bluray_compat=0 / constrained_intra=0 / bframes=3 / b_pyramid=2 / b_adapt=1 / b_bias=0 / direct=3 / weightb=1 / open_gop=0 / weightp=2 / keyint=250 / keyint_min=23 / scenecut=40 / intra_refresh=0 / rc_lookahead=50 / rc=crf / mbtree=1 / crf=19.0 / qcomp=0.60 / qpmin=0 / qpmax=69 / qpstep=4 / ip_ratio=1.40 / aq=1:1.00 Language : English Default : Yes Forced : No Color range : Limited Matrix coefficients : BT.709 Audio ID : 2 Format : AAC Format/Info : Advanced Audio Codec Format profile : LC Codec ID : A_AAC-2 Duration : 1 h 24 min Bit rate : 122 kb/s Channel(s) : 2 channels Channel positions : Front: L R Sampling rate : 48.0 kHz Frame rate : 46.875 FPS (1024 SPF) Compression mode : Lossy Delay relative to video : 9 ms Stream size : 73.7 MiB (22%) Title : English AAC 2.0 Language : English Default : Yes Forced : No Text #1 ID : 3 Format : UTF-8 Codec ID : S_TEXT/UTF8 Codec ID/Info : UTF-8 Plain Text Duration : 1 h 17 min Bit rate : 17 b/s Count of elements : 353 Stream size : 10.1 KiB (0%) Title : FULL FR SRT Language : French Default : Yes Forced : Yes Text #2 ID : 4 Format : ASS Codec ID : S_TEXT/ASS Codec ID/Info : Advanced Sub Station Alpha Duration : 1 h 17 min Bit rate : 31 b/s Count of elements : 353 Compression mode : Lossless Stream size : 17.6 KiB (0%) Title : FULL FR ASS Language : French Default : No Forced : No


uptobox 1fichier uploaded turbobit

telecharger

Voir aussi :

Nom du torrent Taille Qualité
Gwen 800 Mo BRRIP VOSTFR
Elementary Saison 7 Episode 7 HDTV VOSTFR
Damien veut changer le monde (2019-03-06) 2,1 Go WEB-DL 720p FRENCH
Badla 1,4 Go Webrip VOSTFR
Sorry To Bother You (2019-01-30) 8,3 Go Blu-Ray 1080p
Jett Saison 1 Episode 4 HD 720p FRENCH
Bleach 2,8 Go HDLight 1080p MULTI
La Route sauvage (Lean on Pete) (2018-04-25) 4.28 Go WEB-DL 720p
Sacré Noël : Drôle de chorale 700 Mo DVDRIP FRENCH
Les Enfants Maudits 700 Mo HDRip FRENCH
Hellboy (2019-05-08) 1,4 Go BDRIP TRUEFRENCH
The InBetween Saison 1 Episode 10 HD 720p VOSTFR
Heartland (CA) Saison 12 Episode 6 HD 720p FRENCH