Zone Telechargement

Dernières actualités du site :

Ex: ZoneTelechargement torrents


Bleach
Bleach



Origine du film :Japon
Réalisateur(s) :Shinsuke Sato
Acteur(s) :Miyavi, Hana Sugisaki, Erina Mano
Genre :Aventure,Action,
Titre Original :Bleach
Note spectateur : - 3.3/5
Qualité/Format/Langue : HDLight 1080p MULTI

Ichigo Kurosaki, 15 ans, arrive à voir des spectres depuis sa plus tendre enfance. Un soir, sa routine quotidienne est bouleversée suite à sa rencontre avec une shinigami : Rukia Kuchiki, et la venue d'un monstre appelé hollow. Ce dernier étant venu dévorer les âmes de sa famille et la shinigami venue... NFO Show/hide text General Unique ID : 325473749897801895045730169947880880432 (0xF4DBF6CF855AB33C22B77E21980EF930) Complete name : Bleach.2018.MULTi.1080p.BluRay.Light.x264.AC3-ACOOL.WwW.Zone-Telechargement.Net.mkv Format : Matroska Format version : Version 4 / Version 2 File size : 2.80 GiB Duration : 1 h 48 min Overall bit rate : 3 691 kb/s Movie name : Bleach Encoded date : UTC 2019-09-13 11:26:01 Writing application : mkvmerge v25.0.0 ('Prog Noir') 64-bit Writing library : libebml v1.3.6 + libmatroska v1.4.9 Video ID : 1 Format : AVC Format/Info : Advanced Video Codec Format profile : [email protected] Format settings : CABAC / 4 Ref Frames Format settings, CABAC : Yes Format settings, ReFrames : 4 frames Codec ID : V_MPEG4/ISO/AVC Duration : 1 h 48 min Bit rate : 2 800 kb/s Width : 1 920 pixels Height : 802 pixels Display aspect ratio : 2.40:1 Frame rate mode : Constant Frame rate : 23.976 (24000/1001) FPS Color space : YUV Chroma subsampling : 4:2:0 Bit depth : 8 bits Scan type : Progressive Bits/(Pixel*Frame) : 0.076 Stream size : 2.12 GiB (76%) Writing library : x264 core 155 r2901 7d0ff22 Encoding settings : cabac=1 / ref=1 / deblock=1:0:0 / analyse=0x3:0x113 / me=hex / subme=2 / psy=1 / psy_rd=1.00:0.00 / mixed_ref=0 / me_range=16 / chroma_me=1 / trellis=0 / 8x8dct=1 / cqm=0 / deadzone=21,11 / fast_pskip=1 / chroma_qp_offset=0 / threads=25 / lookahead_threads=6 / sliced_threads=0 / nr=0 / decimate=1 / interlaced=0 / bluray_compat=0 / constrained_intra=0 / bframes=3 / b_pyramid=2 / b_adapt=1 / b_bias=0 / direct=1 / weightb=1 / open_gop=0 / weightp=1 / keyint=240 / keyint_min=24 / scenecut=40 / intra_refresh=0 / rc_lookahead=10 / rc=2pass / mbtree=1 / bitrate=2800 / ratetol=1.0 / qcomp=0.60 / qpmin=0 / qpmax=69 / qpstep=4 / cplxblur=20.0 / qblur=0.5 / vbv_maxrate=62500 / vbv_bufsize=78125 / nal_hrd=none / filler=0 / ip_ratio=1.40 / aq=1:1.00 Default : Yes Forced : No Color range : Limited Color primaries : BT.709 Transfer characteristics : BT.709 Matrix coefficients : BT.709 Audio #1 ID : 2 Format : AC-3 Format/Info : Audio Coding 3 Codec ID : A_AC3 Duration : 1 h 48 min Bit rate mode : Constant Bit rate : 448 kb/s Channel(s) : 6 channels Channel positions : Front: L C R, Side: L R, LFE Sampling rate : 48.0 kHz Frame rate : 31.250 FPS (1536 SPF) Bit depth : 16 bits Compression mode : Lossy Stream size : 348 MiB (12%) Title : French AC3 5.1 448kb/s Language : French Service kind : Complete Main Default : Yes Forced : No Audio #2 ID : 3 Format : AC-3 Format/Info : Audio Coding 3 Codec ID : A_AC3 Duration : 1 h 48 min Bit rate mode : Constant Bit rate : 448 kb/s Channel(s) : 6 channels Channel positions : Front: L C R, Side: L R, LFE Sampling rate : 48.0 kHz Frame rate : 31.250 FPS (1536 SPF) Bit depth : 16 bits Compression mode : Lossy Stream size : 347 MiB (12%) Title : Japanese AC3 5.1 448kb/s Language : Japanese Service kind : Complete Main Default : No Forced : No Text #1 ID : 4 Format : UTF-8 Codec ID : S_TEXT/UTF8 Codec ID/Info : UTF-8 Plain Text Duration : 1 h 5 min Bit rate : 0 b/s Count of elements : 13 Stream size : 265 Bytes (0%) Title : FR Forced Language : French Default : Yes Forced : Yes Text #2 ID : 5 Format : UTF-8 Codec ID : S_TEXT/UTF8 Codec ID/Info : UTF-8 Plain Text Duration : 1 h 42 min Bit rate : 32 b/s Count of elements : 966 Stream size : 24.1 KiB (0%) Title : FULL FR Language : French Default : No Forced : No Menu 00:00:00.000 : en:00:00:00.000 00:03:47.769 : en:00:03:47.769 00:15:54.495 : en:00:15:54.495 00:24:24.379 : en:00:24:24.379 00:35:13.110 : en:00:35:13.110 00:46:39.630 : en:00:46:39.630 00:52:53.211 : en:00:52:53.211 01:05:20.750 : en:01:05:20.750 01:20:19.814 : en:01:20:19.814 01:28:21.504 : en:01:28:21.504 01:39:49.358 : en:01:39:49.358 01:43:10.392 : en:01:43:10.392 01:48:22.704 : en:01:48:22.704


uptobox 1fichier uploaded turbobit

telecharger

Voir aussi :

Nom du torrent Taille Qualité
Bleach 2,8 Go HDLight 1080p MULTI
Power Saison 6 Episode 2 Webrip VOSTFR
The Edge of Seventeen 700 Mo BDRIP TRUEFRENCH
Fast Furious : Hobbs Shaw (2019-08-07) 24.1 GB ULTRA HD (X265) MULTI
Tall Girl 1,4 Go Webrip VOSTFR
Blue Bloods Saison 10 Episode 2 HD 720p VOSTFR
La Chute de l’Empire américain (2019-02-20) 1.4 Go HDRip FRENCH
Modern Family Saison 10 Episode 6 HD 720p FRENCH
The Morning Show Saison 1 Episode 3 HD 720p VOSTFR
The Prince 700 Mo BDRIP TRUEFRENCH
Les Filles du soleil (2018-11-21) 2,6 Go WEB-DL 720p
Krampus (2016-05-04) 700 Mo DVDRIP TRUEFRENCH
Siren Saison 2 Episode 7 HD 720p FRENCH